Rabu, 17 Agustus 2011

The Sex Film 2007 Korea

Synopsis / Plot
Pornography in Korea is a delicate subject. While Korea is one of the world's most wired countries, the Korean government has actively taken measures to block pornography on the Internet, with the most recent proposal to ban almost all foreign pornography sites. But while the government is attempting a crackdown, Koreans have spent an average of $526.75 per person per year, beating out countries such as China and the US. So pornography has some relevance in this country.
The film focuses on a young man named Jin-gyu, who dreams of becoming a movie director, takes a job as an assistant director for a porn film called "All Nude Boy". Beyond good or evil, this is how some people make a living. It may look as though anyone can make one, but Jin-gyu finds out in the movie that this is not the case when he argues with the director that sloppiness is not allowed.

In the past Kong always introduced himself as a "porn film director", and But even so, he is still dealing with constant insults. "I used to criticize people who watch porn secretly yet openly condemn it as being two-faced and hypocritical, but now I don't. That's just human nature�.The movie is hilarious and takes a candid look at the porn industry, with even real life interviews with Koreans and their feelings on the pornography.The film was released on November 15th 2007. The movie stars Jo Jae-wan , Kim Dong-soo , Kim Yang-hoon, and Jeong So-jin
Jo Jae-wan, Kim Dong-soo, Kim Yang-hoon, Jeong So-jin

AKA:  The Sex Film
Year: 2007
Directed: Kong Ja-Kwan
Genre: Comedy/Drama/Erotica
Runtime: 72 mins
Country: South Korea
Language: Korean
Subtitles: NA

File info
Source...............:  Ripped by WAF 
File Format..........: AVI
Codec................: Xvid
Resolution...........: 800 x 432
Video Bitrate........: 2253 kbps avg
Codec................: AC3
Bitrate........: 448 kbps

Today And The Other Days (2009)


On the outskirts of town, an unwed daughter lives with her father who suffers from dementia. The pair plays cards every night. The women desperately desires to break away from her life, but cannot ...

Based on the novel "Game of the Night" by Oh Jung-hee.

Cast............: Ha Hee-kyeong, Jeong Jae-jin, Ahn Chan-woo, Lee So-hee, Kim Seung-hyeon, Kang Bong-seok ...etc
Directed........: Choi Wi-Ahn
Genre...........: Mystery, Fan
Release Date....: 29 October 2009 (South Korea)
Runtime.........: 1h 41mn
Also Known As...: Jeonyeui Kyeim  / 저녁의 게임 
Country.........: South Korea
Language........: Korean
Subtitles.......: English, Korean [.idx/.sub]

ID                               : 0
Format                           : MPEG-4 Visual
Format profile                   : Advanced Simple@L5
Format settings, BVOP            : 2
Format settings, QPel            : No
Format settings, GMC             : No warppoints
Format settings, Matrix          : Default (H.263)
Muxing mode                      : Packed bitstream
Codec ID                         : XVID
Codec ID/Hint                    : XviD
Duration                         : 1h 41mn
Bit rate                         : 828 Kbps
Width                            : 576 pixels
Height                           : 320 pixels
Display aspect ratio             : 16:9
Frame rate                       : 23.976 fps
Color space                      : YUV
Chroma subsampling               : 4:2:0
Bit depth                        : 8 bits
Scan type                        : Progressive
Compression mode                 : Lossy
Bits/(Pixel*Frame)               : 0.187
Stream size                      : 603 MiB (86%)
Writing library                  : XviD 1.2.1 (UTC 2008-12-04)

ID                               : 1
Format                           : MPEG Audio
Format version                   : Version 1
Format profile                   : Layer 3
Mode                             : Joint stereo
Mode extension                   : MS Stereo
Codec ID                         : 55
Codec ID/Hint                    : MP3
Duration                         : 1h 41mn
Bit rate mode                    : Variable
Bit rate                         : 122 Kbps
Minimum bit rate                 : 32.0 Kbps
Channel(s)                       : 2 channels
Sampling rate                    : 48.0 KHz
Compression mode                 : Lossy
Stream size                      : 88.9 MiB (13%)
Alignment                        : Aligned on interleaves
Interleave, duration             : 24 ms (0.58 video frame)
Interleave, preload duration     : 372 ms
Writing library                  : LAME3.98r
Encoding settings                : -m j -V 4 -q 0 -lowpass 17.5 --vbr-new -b 32

Sabtu, 06 Agustus 2011

Bakat 2002 DVDrip(pinoy)

Bakat 2002

Title : Bakat 2002 DVDrip
Info :
Director: Francis Posadas
Writer: Lualhati Bautista (screenplay)
Stars: Rodel Velayo, Diana Zubiri and Tommy Abuel
Quality : DVDRip

Download Bakat 2002 (enterupload) 
Pasword : vasakula

Agos 2005 DVDrip(pinoy)

Agos 2005

Santa Santita 2004 DVDrip(pinoy)

Santa Santita 2004

Ucensored (Philippine Cinemas Uncensored Moments) 2009

Ucensored (Philippine Cinemas Uncensored Moments) 2009

Title : Ucensored (Philippine Cinemas Uncensored Moments) 2009

Download Movie File (enterupload)

Pagsaluhan 2002 DVDrip(pinoy)

Pagsaluhan 2002 DVDrip

Title : Pagsaluhan 2002 DVDrip
Info :
Director: Cesar S.B. Abella
Stars: Aileen Amador, Francis Enriquez and Jeffrey Gonzales
Quality : DVDRip
password vasakula